Underworld Awakening DVDrip Español 1 Link (2012)

Descargar Underworld Awakening DVDrip Español 1 Link (2012) Pelicula Gratis

Underworld Awakening (2012) Dvdrip Latino 1 Link, Descargar Underworld Awakening (2012) 1 link Mediafire, Underworld Awakening (2012) DVD Full Latino, Underworld Awakening (2012) Cuevana.tv, Underworld Awakening (2012) Rmvb Español Latino, Underworld Awakening (2012) HD 1080P 720P Buena Calidad, Underworld Awakening (2012) DVDrip Latino 1 link Taringa, Underworld Awakening (2012) Bluray Brrip 1 Link Descargar, Pelicula Online Underworld Awakening (2012) Español Gratis, Underworld Awakening (2012) Torrent Español

.


>>Enlace para Underworld Awakening DVDrip Español 1 Link (2012) 1 Link<<

 

En “Underworld: El despertar”, popularmente conocida como “Underworld 4″, ha pasado más de una década desde que Selene y su amante Michael, híbrido entre humano y licántropo, derrotaran al Vampiro Mayor Marcus. En esos años la Humanidad ha descubierto la existencia tanto del clan de los vampiros como del de los licántropos y se ha lanzado a una lucha encarnizada para eliminar a ambas especies. Selene, capturada durante el genocidio, se despierta después de más de una década y se da cuenta de que se encuentra cautiva en un laboratorio herméticamente cerrado en Antigen, una poderosa corporación biotecnológica que se dedica a desarrollar la vacuna en contra de los virus que han creado a vampiros y licántropos. Selene se siente destrozada cuando descubre que Michael está muerto, pero su dolor es eclipsado por el descubrimiento de que mientras se hallaba en estado de criogenización ha dado a luz a la hija de ambos, Eve. Mientras busca asilo para ella y su hija, Selene se encuentra con que el mundo en el que una vez su raza se alzara orgullosa ya no existe y que su gente ha sido perseguida hasta el borde de la extinción y que los pocos supervivientes se ocultan bajo tierra. Rechazada por los clanes que aún quedan, Selene se enlista para apoyar a un joven vampiro, David, quien se une a ella en su sangrienta venganza contra Antigen, donde oscuras fuerzas conspiran para destruirla tanto a ella como a su hija. Con sus tradicionales enemigos, los licántropos, otra vez en ascenso, incluso Selene parece no tener el poder suficiente para hacer frente a su más poderoso oponente en toda la historia de Underworld: un superlicántropo alterado genéticamente.

Titulo: Underworld 4 : El Despertar
Titulo Original: Underworld Awakening
Año: 2012
País: Estados Unidos
Director: Mans Marlind, Bjorn Stein
Guión: John Hlavin, J. Michael Straczynski
Reparto: Kate Beckinsale (Selene), Stephen Rea (Dr. Jacob Lane), Michael Ealy (detective Sebastian), Sandrine Holt (Lida), India Eisley (Eve), Charles Dance (Thomas), Theo James (David)
Género: Accion. Fantastico

Format : AVI
Format/Info : Audio Video Interleave
File size : 699 MiB
Duration : 1h 25mn
Overall bit rate mode : Variable
Overall bit rate : 1 147 Kbps

Video
ID : 0
Format : MPEG-4 Visual
Format profile : Advanced Simple@L5
Format settings, BVOP : 1
Format settings, QPel : No
Format settings, GMC : No warppoints
Format settings, Matrix : Custom
Codec ID : XVID
Codec ID/Hint : XviD
Duration : 1h 25mn
Bit rate : 1 031 Kbps
Width : 640 pixels
Height : 272 pixels
Display aspect ratio : 2.35:1
Frame rate : 29.970 fps
Color space : YUV
Chroma subsampling : 4:2:0
Bit depth : 8 bits
Scan type : Progressive
Compression mode : Lossy
Bits/(Pixel*Frame) : 0.198
Stream size : 628 MiB (90%)

Audio
ID : 1
Format : MPEG Audio
Format version : Version 1
Format profile : Layer 3
Mode : Joint stereo
Mode extension : MS Stereo
Codec ID : 55
Codec ID/Hint : MP3
Duration : 1h 25mn
Bit rate mode : Variable
Bit rate : 103 Kbps
Nominal bit rate : 128 Kbps
Channel(s) : 2 channels
Sampling rate : 48.0 KHz
Compression mode : Lossy
Stream size : 62.5 MiB (9%)
Alignment : Aligned on interleaves
Interleave, duration : 24 ms (0.72 video frame)
Interleave, preload duration : 209 ms
Writing library : LAME3.98r
Encoding settings : -m j -V 4 -q 2 -lowpass 17 –abr 128
Language : un / Spanish

 

DESCARGAR desde MEDIAFIREOPCION 2 --UPLOADEDWUPLOADRAPIDSHARE

CLICK A LA IMAGEN:

>>Enlace para Underworld Awakening DVDrip Español 1 Link (2012) 1 Link<<

Descargar Underworld Awakening DVDrip Español 1 Link (2012) Gratis Mega,