Contrabando Dvdrip Latino 1 Link (2012)

Descargar Contrabando (2012) 1 link Mediafire, Contrabando (2012) DVD Full Latino, Contrabando (2012) Cuevana.tv, Contrabando (2012) Rmvb Español Latino, Contrabando (2012) HD 1080P 720P Buena Calidad,Real Steel (2012) DVDrip Latino 1 link Taringa, Contrabando (2012)  Bluray Brrip 1 Link Descargar, Pelicula Online Contrabando (2012), Contrabando Español Gratis, Contrabando (2012) Torrent Español


Contrabando


Titulo: Contraband
País: USA
Año: 2012
Fecha de estreno: 13/01/12
Genero: Thriller | Acción


>>Enlace para Contrabando Dvdrip Latino 1 Link (2012) 1 Link<<


Chris Farraday ha abandonado hace tiempo su vida en el crimen, pero después de que su cuñado Andy arruine un trabajo para su jefe, Tim Briggs, Chris se ve obligado a hacer lo que hace mejor, ir de contrabando, para acabar con la deuda de Andy. Chris es un contrabandista legendario y rápidamente se hace con un equipo de gente, y con ellos y su mejor amigo, Sebastian, irá a Panamá y volverá con millones de facturas falsificadas.
Las cosas se estropean rápidamente solo tendrá unas horas de margen para reunir el dinero, además, deberá deshacerse de una red de criminales, polis y sicarios.

Video
ID : 224 (0xE0)
Format : MPEG Video
Format version : Version 1
Format settings, BVOP : Yes
Format settings, Matrix : Custom
Duration : 1h 43mn
Bit rate : 906 Kbps
Maximum bit rate : 913 Kbps
Width : 352 pixels
Height : 240 pixels
Display aspect ratio : 16:9
Frame rate : 29.970 fps
Standard : NTSC
Color space : YUV
Bit depth : 8 bits
Scan type : Progressive
Compression mode : Lossy
Bits/(Pixel*Frame) : 0.358
Stream size : 672 MiB (86%)

Audio
ID : 192 (0xC0)
Format : MPEG Audio
Format version : Version 1
Format profile : Layer 2
Duration : 1h 43mn
Bit rate mode : Constant
Bit rate : 128 Kbps
Channel(s) : 2 channels
Sampling rate : 44.1 KHz
Compression mode : Lossy
Stream size : 94.8 MiB (12%)


Descargar :

http://ul.to/epda908x/CTB.SUB.JGHS.part1.rar

http://ul.to/5xqcziou/CTB.SUB.JGHS.part2.rar
http://www.filejungle.com/f/85Zvc5

http://www.filejungle.com/f/kWeP9D

>>Enlace para Contrabando Dvdrip Latino 1 Link (2012) 1 Link<<

Descargar Contrabando Dvdrip Latino 1 Link (2012) Gratis Mega,